Latest Movie :
Home » » [Mini-HD] Lara Croft Tomb Raider: The Cradle of Life (2003) : ลาร่า ครอฟท์ ทูมเรเดอร์ ภาค 2 [720p][เสียง:ไทย-อังกฤษ][บรรยาย:ไทย-อังกฤษ]

[Mini-HD] Lara Croft Tomb Raider: The Cradle of Life (2003) : ลาร่า ครอฟท์ ทูมเรเดอร์ ภาค 2 [720p][เสียง:ไทย-อังกฤษ][บรรยาย:ไทย-อังกฤษ]

{[['']]}

Lara Croft Tomb Raider (2003) : ลาร่า ครอฟท์ ทูมเรเดอร์ ภาค 2| 2.44GB

เรื่องย่อ
               สาวเซ็กซี่ แอนเจลิน่า โจลี่.(Angelina Jolie).นักแสดงสาวเจ้าของรางวัลออสการ์ กลับมารับบท ลาร่า ครอฟท์ นักล่าสมบัติ ชื่อก้องโลก แต่ครั้งนี้ เธอต้องเผชิญหน้ากับความท้าทาย ที่เต็มไปด้วยความอันตรายครั้งยิ่งใหญ่ที่สุด กับการตามล่าหาสมบัติโบราณ "กล่องแพนโดร่า" ที่ได้ชื่อว่าเป็นที่เก็บสิ่งที่ชั่วร้ายที่สุดเท่าที่โลกเคยรู้จักถูกเก็บซ่อนไว้ในทวีปอัฟริกาในบริเวณที่รู้จักกันในชื่อว่า "แหล่งกำเนินชีวิต" ลาร่าต้องผจญภัยไปทั่วโลกสู่แหล่งอารยธรรมงดงามต่างๆเของโลก อาทิ ฮ่องกง เคนย่า แทนซาเนีย กรีซ และ.กำแพงเมืองจีน เพื่อให้พบกล่องแพนโดร่าก่อนที่มันจะตกไปอยู่ในมือของนักวิทยาศาสตร์ ดร. โจนาธาน รีสส์.(Ciaran Hinds).ผู้วางแผนที่จะใช้มันเพื่อครอบครองโลก ในการผจญภัยสุดตื่นเต้นครั้งนี้ ลาร่าได้อดีตเจ้าหน้าที่เทอร์รี่ เชอริแดน.(Gerard Butler).ชายหนุ่มอันตรายผู้เคยทรยศเธอมาก่อน และ.เคยมีความสัมพันธ์ที่ใกล้ชิดกับเธอเป็นผู้ร่วมเดินทาง ลาร่ารู้ว่าเขาเป็นคนที่เหมาะสมที่สุดสำหรับภารกิจสำคัญในครั้งนี้ แต่เธอจะสามารถไว้ใจเขาอีกครั้งได้หรือไม่ พบกับลีลาการต่อสู้แบบประชิดตัวด้วยมือเปล่า การปะทะกันด้วยอาวุธนานาชนิด ตลอดจนการไล่ล่าด้วยเจ็ตสกี เพื่อปกป้องกล่องแพนโดร่า...อันเกี่ยวพันกับการอยู่รอดของมวลมนุษยชาติ

General

Unique ID : 230346947460745606089885572876907059014 (0xAD4B3557D20BA218B81DE91A48481746)
Complete name : D:nfsdownload[m-HD] Lara Croft Tomb Raider Duology 2001-2003 BluRay 720p AC3 x264-CtHtsLara Croft Tomb Raider The Cradle of Life 2003 BluRay 720p AC3 x264-CtHts.mkv
Format : Matroska
Format version : Version 2
File size : 2.44 GiB
Duration : 1h 57mn
Overall bit rate : 2 975 Kbps
Movie name : Lara Croft Tomb Raider The Cradle of Life 2003 BluRay 720p AC3 x264-CtHts
Encoded date : UTC 2013-01-06 07:38:34
Writing application : mkvmerge v3.4.0 ( Rapunzel ) built on May 15 2010 09:38:20
Writing library : libebml v0.8.0 + libmatroska v0.9.0

Video
ID : 1
Format : AVC
Format/Info : Advanced Video Codec
Format profile : High@L4.1
Format settings, CABAC : Yes
Format settings, ReFrames : 4 frameCodec ID : V_MPEG4/ISO/AVC
Duration : 1h 57mn
Bit rate : 2 100 Kbps
Width : 1 280 pixels
Height : 544 pixels
Display aspect ratio : 2.35:1
Frame rate : 23.976 fps
Color space : YUV
Chroma subsampling : 4:2:0
Bit depth : 8 bits
Scan type : Progressive
Bits/(Pixel*Frame) : 0.126
Stream size : 1.66 GiB (68%)
Title : Lara Croft Tomb Raider The Cradle of Life 2003 BluRay 720p AC3 x264-CtHts
Writing library : x264 core 119
Encoding settings : cabac=1 / ref=3 / deblock=1:0:0 / analyse=0x3:0x133 / me=umh / subme=9 / psy=1 / psy_rd=1.00:0.00 / mixed_ref=1 / me_range=16 / chroma_me=1 / trellis=2 / 8x8dct=1 / cqm=0 / deadzone=21,11 / fast_pskip=1 / chroma_qp_offset=-2 / threads=9 / sliced_threads=0 / nr=0 / decimate=1 / interlaced=0 / bluray_compat=0 / constrained_intra=0 / bframes=3 / b_pyramid=2 / b_adapt=2 / b_bias=0 / direct=1 / weightb=1 / open_gop=0 / weightp=2 / keyint=240 / keyint_min=24 / scenecut=40 / intra_refresh=0 / rc_lookahead=50 / rc=abr / mbtree=1 / bitrate=2100 / ratetol=1.0 / qcomp=0.60 / qpmin=3 / qpmax=69 / qpstep=4 / ip_ratio=1.40 / aq=1:1.00
Language : English
Default : Yes
Forced : No
Color primaries : BT.709-5, BT.1361, IEC 61966-2-4, SMPTE RP177
Transfer characteristics : BT.709-5, BT.1361
Matrix coefficients : BT.709-5, BT.1361, IEC 61966-2-4 709, SMPTE RP177


Audio #1
ID : 2
Format : AC-3
Format/Info : Audio Coding 3
Mode extension : CM (complete main)
Codec ID : A_AC3
Duration : 1h 57mn
Bit rate mode : Constant
Bit rate : 448 Kbps
Channel(s) : 6 channels
Channel positions : Front: L C R, Side: L R, LFE
Sampling rate : 48.0 KHz
Bit depth : 16 bits
Compression mode : Lossy
Stream size : 376 MiB (15%)
Title : Thai AC3 5.1 at 448 Kbps [DVD Master]
Language : Thai
Default : Yes
Forced : No

Audio #2
ID : 3
Format : AC-3
Format/Info : Audio Coding 3
Mode extension : CM (complete main)
Codec ID : A_AC3
Duration : 1h 57mn
Bit rate mode : Constant
Bit rate : 448 Kbps
Channel(s) : 6 channels
Channel positions : Front: L C R, Side: L R, LFE
Sampling rate : 48.0 KHz
Bit depth : 16 bits
Compression mode : Lossy
Stream size : 376 MiB (15%)
Title : English AC3 5.1 at 448 Kbps
Language : English
Default : No
Forced : No

Text #1
ID : 4
Format : VobSub
Muxing mode : zlib
Codec ID : S_VOBSUB
Codec ID/Info : The same subtitle format used on DVDs
Title : Thai 480p Under [DVD Master]
Language : Thai
Default : Yes
Forced : No

Text #2
ID : 5
Format : VobSub
Muxing mode : zlib
Codec ID : S_VOBSUB
Codec ID/Info : The same subtitle format used on DVDs
Title : Thai 480p [DVD Master]
Language : Thai
Default : No
Forced : No

Text #3
ID : 6
Format : UTF-8
Codec ID : S_TEXT/UTF8
Codec ID/Info : UTF-8 Plain Text
Title : English SRT
Language : English
Default : No
Forced : No
  

 
 
================================================
++ วิธีโหลดหนังจากเว็บนี้ โปรดอ่าน!! ++
** ONE2UP โหลดลิงค์อื่นแทนไม่ได้ แต่ลิงค์อื่นโหลดแทนกันได้ **
** แบบแบ่ง Part 200MB โหลดแทนกันได้ **
 -- Winrar ใส่ Recovery Record 5% ทุกไฟล์ครับ คลิก --
 ================================================ 
Share this article :

แสดงความคิดเห็น