Latest Movie :
Home » » [Mini-HD] Hijacked (2012) / ดับคนเดือด ปล้นระฟ้า [720p.][เสียงอังกฤษ DTS+พากย์ไทย 5.1][บรรยายไทย+อังกฤษ]

[Mini-HD] Hijacked (2012) / ดับคนเดือด ปล้นระฟ้า [720p.][เสียงอังกฤษ DTS+พากย์ไทย 5.1][บรรยายไทย+อังกฤษ]

{[['']]}

Hijacked (2012) / ดับคนเดือด ปล้นระฟ้า | 3.8GB

เรื่องย่อ
               ภาพยนตร์แอ็คชั่นระทึกขวัญท้าเวหา ที่รวมพลนักแสดงชั้นนำ อาทิ แรนดี้ คอเจอร์ (จาก The Expendables), วินนี่ โจนส์ (จาก X-Men: The Last Stand), โฮล์ท แมคคัลเลนี (จาก Fight Club) และ โดมินิค เพอร์เซลล์ (จากซีรี่ส์สุดฮิต Prison Break) เรื่องราวของชายหนุ่มที่ต้องการตามง้อคู่หมั้นสาว แต่อาจจะสายเกินไป เมื่อเธอหนีขึ้นเครื่องบินไปแล้ว โดยไม่รู้เลยว่าเครื่องบินลำนั้นคือเป้าสังหารของผู้ร้ายข้ามชาติ เวลานี้การไล่ล่าสุดระห่ำเริ่มต้นแล้ว!

General
Unique ID: 202834361851572470974932029498295225886 (0x98987A24CD722F6AB8D12AA4CA4A8E1E)
Complete name: Hijacked.2012.BluRay.720p.seed-loadmovie.mkv
Format : Matroska
Format version : Version 2
File size: 3.80 GiB
Duration : 1h 30mn
Overall bit rate : 6 027 Kbps
Movie name : Hijacked.2012.BluRay.720p.DTS.x264.CtHts - PORSC
Encoded date : UTC 2012-10-02 16:45:50
Writing application: mkvmerge v4.2.0 ('No Talking') built on Jul 28 2010 18:38:23
Writing library: libebml v1.0.0 + libmatroska v1.0.0

Video
ID : 1
Format : AVC
Format/Info: Advanced Video Codec
Format profile : High@L4.1
Format settings, CABAC : Yes
Format settings, ReFrames: 9 frames
Codec ID : V_MPEG4/ISO/AVC
Duration : 1h 30mn
Bit rate : 4 047 Kbps
Width: 1 280 pixels
Height : 720 pixels
Display aspect ratio : 16:9
Frame rate mode: Constant
Frame rate : 23.976 fps
Color space: YUV
Chroma subsampling : 4:2:0
Bit depth: 8 bits
Scan type: Progressive
Bits/(Pixel*Frame) : 0.183
Stream size: 2.49 GiB (66%)
Title: Hijacked.2012.BluRay.720p.DTS.x264.CtHts - PORSC
Writing library: x264 core 124 r2197 69a0443
Encoding settings: cabac=1 / ref=9 / deblock=1:-3:-3 / analyse=0x3:0x113 / me=umh / subme=10 / psy=1 / psy_rd=1.10:0.15 / mixed_ref=1 / me_range=32 / chroma_me=1 / trellis=2 / 8x8dct=1 / cqm=0 / deadzone=21,11 / fast_pskip=0 / chroma_qp_offset=-2 / threads=12 / sliced_threads=0 / nr=0 / decimate=1 / interlaced=0 / bluray_compat=0 / constrained_intra=0 / bframes=6 / b_pyramid=2 / b_adapt=2 / b_bias=0 / direct=3 / weightb=1 / open_gop=0 / weightp=2 / keyint=250 / keyint_min=23 / scenecut=40 / intra_refresh=0 / rc_lookahead=60 / rc=2pass / mbtree=0 / bitrate=4047 / ratetol=1.0 / qcomp=0.60 / qpmin=0 / qpmax=69 / qpstep=4 / cplxblur=20.0 / qblur=0.5 / vbv_maxrate=40000 / vbv_bufsize=30000 / nal_hrd=none / ip_ratio=1.40 / pb_ratio=1.30 / aq=1:0.80
Language : English
Default: No
Forced : No

Audio #1
ID : 2
Format : DTS
Format/Info: Digital Theater Systems
Codec ID : A_DTS
Duration : 1h 30mn
Bit rate mode: Constant
Bit rate : 1 510 Kbps
Channel(s) : 6 channels
Channel positions: Front: L C R, Side: L R, LFE
Sampling rate: 48.0 KHz
Bit depth: 24 bits
Compression mode : Lossy
Stream size: 975 MiB (25%)
Title: English DTS-HDMA 5.1
Language : English
Default: No
Forced : No

Audio #2
ID : 3
Format : AC-3
Format/Info: Audio Coding 3
Mode extension : CM (complete main)
Format settings, Endianness: Big
Codec ID : A_AC3
Duration : 1h 30mn
Bit rate mode: Constant
Bit rate : 448 Kbps
Channel(s) : 6 channels
Channel positions: Front: L C R, Side: L R, LFE
Sampling rate: 48.0 KHz
Bit depth: 16 bits
Compression mode : Lossy
Delay relative to video: 1s 0ms
Stream size: 289 MiB (7%)
Title: Thai DVD Master
Language : Thai
Default: No
Forced : Yes

Text #1
ID : 4
Format : VobSub
Codec ID : S_VOBSUB
Codec ID/Info: The same subtitle format used on DVDs
Title: Thai 480p DVD Master
Language : Thai
Default: No
Forced : No

Text #2
ID : 5
Format : VobSub
Codec ID : S_VOBSUB
Codec ID/Info: The same subtitle format used on DVDs
Title: Thai Angsana 1080p
Language : Thai
Default: No
Forced : Yes

Text #3
ID : 6
Format : VobSub
Codec ID : S_VOBSUB
Codec ID/Info: The same subtitle format used on DVDs
Title: Thai Angsana 1080p Low
Language : Thai
Default: No
Forced : No

Text #4
ID : 7
Format : VobSub
Codec ID : S_VOBSUB
Codec ID/Info: The same subtitle format used on DVDs
Title: Thai Angsana 1080p Yellow
Language : Thai
Default: No
Forced : No

Text #5
ID : 8
Format : VobSub
Codec ID : S_VOBSUB
Codec ID/Info: The same subtitle format used on DVDs
Title: English
Language : English
Default: No
Forced : No
 
  

 
================================================
** แบบแบ่ง Part 200MB โหลดแทนกันได้ **
 -- Winrar ใส่ Recovery Record 5% ทุกไฟล์ครับ คลิก --
 ================================================
Share this article :

แสดงความคิดเห็น